osu file format v14

[General]
AudioFilename: Amazarashi.mp3
AudioLeadIn: 2000
PreviewTime: 52694
Countdown: 0
SampleSet: Soft
StackLeniency: 0.7
Mode: 0
LetterboxInBreaks: 0
WidescreenStoryboard: 0

[Editor]
Bookmarks: 74241
DistanceSpacing: 1.2
BeatDivisor: 4
GridSize: 4
TimelineZoom: 1.6

[Metadata]
Title:Kisetsu wa Tsugitsugi Shindeiku -Tokyo Ghoul Root A Edit-
TitleUnicode:季節は次々死んでいく -東京喰種トーキョーグール√A Edit-
Artist:amazarashi
ArtistUnicode:amazarashi
Creator:NewIpas
Version:Insane
Source:東京喰種 トーキョーグール√A
Tags:tokyo ghoul root a season 2 ending Seasons die one after another
BeatmapID:616929
BeatmapSetID:271339

[Difficulty]
HPDrainRate:7
CircleSize:4
OverallDifficulty:8
ApproachRate:9
SliderMultiplier:1.6
SliderTickRate:1

[Events]
//Background and Video events
0,0,"BG.jpg",0,0
Video,410,"video.avi",0,0
//Break Periods
//Storyboard Layer 0 (Background)
//Storyboard Layer 1 (Fail)
//Storyboard Layer 2 (Pass)
//Storyboard Layer 3 (Foreground)
//Storyboard Sound Samples

[TimingPoints]
319,331.491712707182,4,2,1,40,1,0
8274,-100,4,2,1,45,0,0
9600,-100,4,2,1,50,0,0
9932,-100,4,2,1,55,0,0
10429,-100,4,2,1,60,0,0
10926,-100,4,2,1,50,0,0
30484,-100,4,2,1,45,0,0
31479,-100,4,2,1,40,0,0
32142,-100,4,2,1,35,0,0
37114,-100,4,2,1,30,0,0
37446,-100,4,2,1,35,0,0
41423,-100,4,2,1,40,0,0
42418,-100,4,2,1,25,0,0
42584,-100,4,2,1,40,0,0
44075,-100,4,2,1,45,0,0
45401,-100,4,2,1,50,0,0
46727,-100,4,2,1,55,0,0
48053,-100,4,2,1,60,0,0
49379,-100,4,2,1,65,0,0
50705,-100,4,2,1,70,0,0
52031,-100,4,2,1,45,0,0
52694,-100,4,2,1,50,0,0
52860,-100,4,2,1,55,0,0
53026,-100,4,2,1,60,0,0
53191,-100,4,2,1,65,0,0
53357,-90.9090909090909,4,2,1,70,0,1
74075,-90.9090909090909,4,2,1,50,0,1
74241,-90.9090909090909,4,2,1,60,0,1
74407,-90.9090909090909,4,2,1,70,0,1
74573,-100,4,2,1,70,0,0
80539,-100,4,2,1,65,0,0
81202,-100,4,2,1,60,0,0
82197,-100,4,2,1,65,0,0
82528,-100,4,2,1,70,0,0
83191,-100,4,2,1,65,0,0
83854,-100,4,2,1,60,0,0
87832,-100,4,2,1,40,0,0

[Colours]
Combo1 : 108,196,217
Combo2 : 202,84,222
Combo3 : 95,218,88
Combo4 : 200,100,100

[HitObjects]
144,92,319,6,0,L|228:92,1,80,0|0,3:0|0:0,0:0:0:0:
308,144,650,2,0,B|325:116|327:84|316:56,1,80,0|0,3:0|0:0,0:0:0:0:
384,184,981,2,0,B|332:161|271:187|252:239,1,160,0|0,3:0|3:0,0:0:0:0:
344,276,1479,1,0,0:0:0:0:
120,294,1644,6,0,B|172:317|233:291|252:239,1,160,0|0,3:0|3:0,0:0:0:0:
288,148,2142,1,0,3:0:0:0:
308,56,2307,1,0,3:0:0:0:
212,40,2473,2,0,B|186:52|168:75|160:100,1,80,0|0,3:0|3:0,0:0:0:0:
184,190,2805,1,0,0:0:0:0:
308,144,2970,6,0,B|348:130|389:127,1,80,0|0,3:0|0:0,0:0:0:0:
240,252,3302,2,0,B|209:223|184:190,1,80,0|0,3:0|0:0,0:0:0:0:
360,264,3633,2,0,B|351:305|334:342,1,80,0|0,3:0|0:0,0:0:0:0:
184,344,3965,1,0,3:0:0:0:
112,256,4131,1,0,0:0:0:0:
176,168,4296,2,0,L|260:160,1,80,0|0,3:0|0:0,0:0:0:0:
364,184,4628,5,0,3:0:0:0:
460,96,4794,1,0,3:0:0:0:
460,96,4959,2,0,L|376:96,2,80,0|0|0,3:0|3:0|3:0,0:0:0:0:
340,184,5457,1,0,0:0:0:0:
340,184,5539,1,0,0:0:0:0:
340,184,5622,6,0,B|295:167|268:122|273:74|299:41,1,160,4|0,3:1|3:0,0:0:0:0:
168,184,6285,2,0,B|156:224|156:224|164:264,1,80,0|0,3:0|0:0,0:0:0:0:
324,344,6617,2,0,B|336:304|336:304|328:264,1,80,0|0,3:0|0:0,0:0:0:0:
256,116,6948,5,0,3:0:0:0:
256,116,7280,1,0,3:0:0:0:
256,116,7611,2,0,B|231:101|217:75|216:48,1,80,0|0,3:0|0:0,0:0:0:0:
296,48,7943,1,0,3:0:0:0:
256,196,8109,1,0,0:0:0:0:
144,292,8274,6,0,L|68:316,1,80,0|0,3:0|0:0,0:0:0:0:
256,196,8606,1,0,3:0:0:0:
444,240,8772,1,0,0:0:0:0:
332,264,8937,2,0,L|256:288,2,80,0|0|0,3:0|0:0|3:0,0:0:0:0:
444,240,9435,1,0,0:0:0:0:
384,96,9600,6,0,L|464:88,1,80,0|0,3:0|0:0,0:0:0:0:
344,32,9932,2,0,B|305:55|292:105|314:146|350:163,1,160,0|0,3:0|3:0,0:0:0:0:
428,260,10429,1,0,0:0:0:0:
416,276,10512,1,0,0:0:0:0:
404,292,10595,2,0,B|376:297|349:285|332:264,1,80,0|0,3:0|0:0,0:0:0:0:
240,168,10926,6,0,L|256:328,1,160,0|8,3:0|3:2,0:0:0:0:
396,300,11423,1,0,0:0:0:0:
396,300,11506,1,8,0:0:0:0:
396,300,11589,2,0,L|424:224,1,80,0|0,3:0|0:0,0:0:0:0:
432,60,11921,2,0,L|404:136,1,80,8|0,3:2|0:0,0:0:0:0:
240,168,12252,6,0,B|217:129|170:113|127:130|105:163,1,160,0|8,3:0|3:2,0:0:0:0:
172,288,12749,1,0,0:0:0:0:
172,288,12832,1,8,0:0:0:0:
172,288,12915,2,0,L|172:208,1,80,0|0,3:0|0:0,0:0:0:0:
264,64,13247,1,8,3:2:0:0:
348,104,13412,1,0,0:0:0:0:
432,60,13578,6,0,L|432:220,1,160,0|8,3:0|3:2,0:0:0:0:
344,316,14075,1,0,0:0:0:0:
344,316,14158,1,8,0:0:0:0:
344,316,14241,2,0,B|316:309|293:291|280:268,1,80,0|0,3:0|0:0,0:0:0:0:
204,152,14573,1,8,3:2:0:0:
44,248,14738,1,0,0:0:0:0:
60,124,14904,6,0,B|49:97|50:68|60:44,2,80,0|0|8,3:0|0:0|3:2,0:0:0:0:
44,248,15401,1,0,0:0:0:0:
44,248,15484,1,8,0:0:0:0:
44,248,15567,2,0,B|84:240|84:240|124:248,1,80,0|0,3:0|0:0,0:0:0:0:
296,324,15899,2,0,B|256:332|256:332|216:324,1,80,8|0,3:2|0:0,0:0:0:0:
316,228,16230,6,0,B|354:277|422:285|471:253,1,160,0|8,3:0|3:2,0:0:0:0:
408,156,16727,1,0,0:0:0:0:
408,156,16810,1,8,0:0:0:0:
408,156,16893,2,0,L|332:128,1,80,0|0,3:0|0:0,0:0:0:0:
256,248,17225,1,8,3:2:0:0:
160,128,17390,1,0,0:0:0:0:
88,88,17556,6,0,B|112:45|165:29|211:52|231:90,1,160,0|8,3:0|3:2,0:0:0:0:
256,248,18053,1,0,0:0:0:0:
256,248,18136,1,8,0:0:0:0:
256,248,18219,2,0,L|336:228,1,80,0|0,3:0|0:0,0:0:0:0:
408,92,18551,1,8,3:2:0:0:
319,117,18716,1,0,0:0:0:0:
288,28,18882,6,0,B|261:38|241:59|232:84,1,80,0|0,3:0|0:0,0:0:0:0:
64,204,19214,2,0,L|144:204,1,80,8|0,3:2|0:0,0:0:0:0:
176,184,19462,1,8,0:0:0:0:
176,184,19545,2,0,B|168:144|168:144|180:104,1,80,0|0,3:0|0:0,0:0:0:0:
332,264,19877,2,0,B|340:304|340:304|328:344,1,80,8|0,3:2|0:0,0:0:0:0:
408,156,20208,5,0,3:0:0:0:
292,100,20374,1,0,0:0:0:0:
332,264,20539,1,8,3:2:0:0:
176,184,20705,1,0,0:0:0:0:
176,184,20788,1,8,0:0:0:0:
176,184,20871,2,0,B|147:186|122:198|104:216,1,80,0|0,3:0|0:0,0:0:0:0:
332,264,21202,1,8,3:2:0:0:
292,100,21368,1,0,0:0:0:0:
408,156,21534,6,0,L|408:316,2,160,0|8|0,3:0|3:2|3:0,0:0:0:0:
384,72,22363,1,0,0:0:0:0:
312,24,22528,2,0,B|281:21|252:32|232:52,1,80,0|8,0:0|3:2,0:0:0:0:
176,108,22860,5,0,0:0:0:0:
193,188,23026,1,0,0:0:0:0:
193,188,23191,2,0,B|235:202|280:181|299:140|292:102,1,160,8|0,3:2|3:0,0:0:0:0:
128,136,23689,2,0,B|111:162|107:193|116:220,1,80,0|8,0:0|3:2,0:0:0:0:
256,320,24020,1,0,0:0:0:0:
256,320,24103,1,0,0:0:0:0:
256,320,24186,6,0,B|316:320|316:320|352:336|352:336|416:336,1,160,0|8,3:0|3:2,0:0:0:0:
384,248,24683,1,0,0:0:0:0:
384,248,24766,1,8,0:0:0:0:
384,248,24849,2,0,L|384:168,1,80,0|0,3:0|0:0,0:0:0:0:
296,56,25180,2,0,L|296:136,1,80,0|8,0:0|3:2,0:0:0:0:
236,200,25512,6,0,B|260:218|274:245|276:272,1,80,0|0,0:0|0:0,0:0:0:0:
193,270,25843,2,0,B|137:257|104:203|112:149,1,160,8|0,3:2|3:0,0:0:0:0:
224,32,26341,1,0,0:0:0:0:
144,40,26506,2,0,B|146:83|182:114|223:112,1,120,8|0,3:2|0:0,0:0:0:0:
264,112,26838,6,0,B|299:136|320:172,1,80,0|0,3:0|0:0,0:0:0:0:
376,108,27169,2,0,B|400:73|436:52,1,80,8|0,3:2|0:0,0:0:0:0:
476,60,27418,1,8,0:0:0:0:
476,60,27501,2,0,L|476:140,1,80,0|0,3:0|0:0,0:0:0:0:
396,208,27832,2,0,L|396:288,1,80,8|0,3:2|0:0,0:0:0:0:
204,256,28164,6,0,L|192:336,1,80,0|0,3:0|0:0,0:0:0:0:
144,172,28495,2,0,L|156:92,1,80,8|0,3:2|0:0,0:0:0:0:
168,88,28744,1,8,0:0:0:0:
180,84,28827,1,0,3:0:0:0:
304,96,28993,1,0,0:0:0:0:
424,72,29158,1,8,3:2:0:0:
344,200,29324,1,0,0:0:0:0:
204,256,29490,6,0,B|164:248|120:264|120:264|80:280|44:264,2,160,0|8|0,3:0|3:2|3:0,0:0:0:0:
276,112,30484,2,0,B|316:104|360:120|360:120|400:136|436:120,2,160,8|0|8,3:2|3:0|3:2,0:0:0:0:
204,256,31313,1,0,0:0:0:0:
212,276,31396,1,8,3:2:0:0:
220,296,31479,1,0,3:0:0:0:
228,316,31562,1,8,0:0:0:0:
236,336,31644,1,0,0:0:0:0:
420,280,31810,1,8,0:0:0:0:
280,216,31976,1,0,0:0:0:0:
356,172,32142,6,0,B|380:120|387:66|380:14,2,160,0|0|2,3:0|0:0|0:0,0:0:0:0:
132,16,33136,1,0,0:0:0:0:
132,16,33468,2,0,B|125:72|135:126|157:173,1,160,0|0,0:0|0:0,0:0:0:0:
316,340,34131,2,0,B|272:360|272:360|160:360,1,160,2|0,0:0|0:0,0:0:0:0:
96,280,34628,1,0,0:0:0:0:
64,180,34794,6,0,L|144:180,1,80,0|0,0:0|0:0,0:0:0:0:
308,228,35125,2,0,L|228:228,1,80,0|0,0:0|0:0,0:0:0:0:
144,180,35457,2,0,B|159:155|185:141|212:140,1,80,2|0,0:0|0:0,0:0:0:0:
292,140,35788,1,0,0:0:0:0:
308,228,35954,1,0,0:0:0:0:
308,228,36120,6,0,B|372:228|372:228|400:212|400:212|464:212,1,160,0|0,0:0|0:0,0:0:0:0:
328,132,36617,1,0,0:0:0:0:
256,72,36782,1,2,0:0:0:0:
184,132,36948,1,0,0:0:0:0:
204,228,37114,1,2,0:0:0:0:
308,228,37280,1,0,0:0:0:0:
328,132,37445,5,4,0:1:0:0:
328,132,37777,2,0,B|380:160|448:148|448:148|432:184,1,160,0|2,0:0|0:0,0:0:0:0:
388,260,38274,2,0,B|372:299|372:340,2,80,0|0|0,0:0|0:0|0:0,0:0:0:0:
328,132,38772,2,0,B|300:132|300:132|276:124|276:124|248:124,1,80,0|0,0:0|0:0,0:0:0:0:
112,184,39103,2,0,B|140:184|140:184|164:192|164:192|192:192,1,80,0|0,0:0|0:0,0:0:0:0:
288,252,39435,2,0,B|298:279|292:307|276:328,1,80,2|0,0:0|0:0,0:0:0:0:
192,192,39766,2,0,B|182:165|188:137|204:116,1,80,0|0,0:0|0:0,0:0:0:0:
280,56,40098,6,0,L|364:56,1,80,0|0,0:0|0:0,0:0:0:0:
432,108,40429,2,0,B|414:131|387:143|360:144,1,80,0|0,0:0|0:0,0:0:0:0:
292,208,40760,2,0,L|324:368,1,160,2|0,0:0|0:0,0:0:0:0:
240,144,41423,6,0,B|220:108|220:108|220:68,1,80,0|0,0:0|0:0,0:0:0:0:
336,76,41755,2,0,B|356:112|356:112|356:152,1,80,0|0,0:0|0:0,0:0:0:0:
348,252,42086,2,0,B|378:244|407:248|432:260,1,80,2|0,0:0|0:0,0:0:0:0:
380,344,42418,2,0,B|350:352|321:348|296:336,1,80,2|0,0:0|0:0,0:0:0:0:
256,192,42749,6,0,B|238:215|229:242|228:269,1,80,4|0,3:1|0:0,0:0:0:0:
348,252,43081,2,0,B|366:229|375:202|376:175,1,80,0|0,3:0|0:0,0:0:0:0:
336,20,43412,2,0,L|300:96,1,80,0|0,3:0|0:0,0:0:0:0:
256,192,43744,1,0,3:0:0:0:
216,284,43910,1,0,0:0:0:0:
120,296,44075,6,0,B|70:267|51:208|68:157,2,160,0|0|0,3:0|3:0|3:0,0:0:0:0:
208,344,44904,1,0,0:0:0:0:
304,316,45070,1,0,3:0:0:0:
312,220,45236,1,0,0:0:0:0:
404,184,45401,6,0,B|445:166|467:122|459:78|433:49,2,160,0|0|0,3:0|3:0|3:0,0:0:0:0:
376,108,46230,1,0,0:0:0:0:
256,188,46396,1,0,3:0:0:0:
136,108,46562,1,0,0:0:0:0:
108,184,46727,6,0,B|67:166|45:122|53:78|79:49,2,160,0|0|0,3:0|3:0|3:0,0:0:0:0:
216,252,47556,1,0,3:0:0:0:
124,276,47722,1,0,3:0:0:0:
296,304,47888,1,0,3:0:0:0:
296,304,47970,1,0,3:0:0:0:
296,304,48053,6,0,L|376:304,1,80,4|0,3:1|0:0,0:0:0:0:
352,204,48385,2,0,L|432:204,1,80,0|0,3:0|0:0,0:0:0:0:
320,112,48716,2,0,B|292:120|271:140|260:164,1,80,0|0,3:0|0:0,0:0:0:0:
188,344,49048,1,0,3:0:0:0:
32,296,49214,1,0,0:0:0:0:
132,188,49379,6,0,B|119:160|122:129|136:104,1,80,0|0,3:0|0:0,0:0:0:0:
228,40,49711,1,0,3:0:0:0:
272,208,49877,1,0,0:0:0:0:
356,232,50042,2,0,B|348:261|326:283|300:292,1,80,0|0,3:0|0:0,0:0:0:0:
188,188,50374,2,0,B|196:159|218:137|244:128,1,80,0|0,3:0|0:0,0:0:0:0:
188,344,50705,6,0,B|150:328|124:296,1,80,4|0,3:1|0:0,0:0:0:0:
48,208,51037,1,4,3:1:0:0:
108,120,51202,2,0,L|108:40,1,80,0|4,0:0|3:1,0:0:0:0:
188,188,51534,1,0,0:0:0:0:
328,184,51700,1,4,3:1:0:0:
260,252,51865,1,0,0:0:0:0:
256,96,52031,5,0,3:0:0:0:
256,112,52363,1,0,0:0:0:0:
256,128,52694,5,0,0:0:0:0:
368,168,52860,1,0,0:0:0:0:
448,104,53026,1,0,0:0:0:0:
336,52,53191,1,0,0:0:0:0:
176,216,53357,6,0,L|160:308,1,88.000002685547,4|0,3:1|0:0,0:0:0:0:
368,168,53689,1,0,3:0:0:0:
292,232,53854,1,0,0:0:0:0:
368,168,54020,2,0,B|371:136|361:107|344:84,1,88.000002685547,0|0,3:0|0:0,0:0:0:0:
176,36,54352,1,0,3:0:0:0:
268,152,54517,1,0,0:0:0:0:
80,192,54683,6,0,B|44:222|42:276|76:308,1,132.00000402832,0|0,3:0|0:0,0:0:0:0:
108,328,55015,2,0,B|136:316|136:316|160:320|160:320|192:312,1,88.000002685547,0|0,3:0|0:0,0:0:0:0:
308,288,55346,2,0,B|360:288|360:288|384:272|384:272|436:272,1,132.00000402832,0|0,3:0|0:0,0:0:0:0:
456,244,55678,2,0,B|476:220|483:188|476:160,1,88.000002685547,0|0,3:0|0:0,0:0:0:0:
224,76,56009,5,0,3:0:0:0:
192,176,56175,1,0,0:0:0:0:
312,136,56341,1,0,3:0:0:0:
192,176,56506,1,0,0:0:0:0:
368,72,56672,2,0,B|387:97|395:128|392:156,1,88.000002685547,0|0,3:0|0:0,0:0:0:0:
284,288,57004,1,0,3:0:0:0:
312,136,57169,1,0,0:0:0:0:
200,320,57335,6,0,B|168:327|137:320|112:304,1,88.000002685547,0|0,3:0|0:0,0:0:0:0:
172,228,57667,2,0,B|156:200|151:169|156:139,1,88.000002685547,0|0,3:0|0:0,0:0:0:0:
272,184,57998,1,0,3:0:0:0:
488,104,58164,1,0,0:0:0:0:
356,40,58330,1,0,3:0:0:0:
376,156,58495,1,0,0:0:0:0:
244,64,58661,6,0,L|156:64,2,88.000002685547,4|0|0,3:1|0:0|3:0,0:0:0:0:
312,136,59158,1,0,0:0:0:0:
332,236,59324,2,0,L|308:320,1,88.000002685547,0|0,3:0|0:0,0:0:0:0:
220,148,59656,2,0,L|244:64,1,88.000002685547,0|0,3:0|0:0,0:0:0:0:
332,236,59987,5,0,3:0:0:0:
168,264,60153,1,0,0:0:0:0:
307,320,60318,2,0,B|338:327|368:319|390:301,1,88.000002685547,0|0,3:0|0:0,0:0:0:0:
168,264,60650,2,0,B|162:295|171:325|189:347,1,88.000002685547,0|0,3:0|0:0,0:0:0:0:
256,256,60981,2,0,L|280:172,1,88.000002685547,0|0,3:0|0:0,0:0:0:0:
172,36,61313,6,0,L|136:164,1,132.00000402832,0|0,3:0|0:0,0:0:0:0:
100,192,61644,2,0,B|117:220|115:254|100:280,1,88.000002685547,0|0,3:0|0:0,0:0:0:0:
48,124,61976,2,0,B|31:96|33:62|48:36,1,88.000002685547,0|0,3:0|0:0,0:0:0:0:
200,200,62307,1,0,3:0:0:0:
100,192,62473,1,0,0:0:0:0:
236,108,62639,6,0,B|280:62|354:66|392:116,1,176.000005371094,0|0,3:0|3:0,0:0:0:0:
472,256,63136,2,0,B|428:302|354:298|316:248,1,176.000005371094,0|0,0:0|0:0,0:0:0:0:
156,224,63633,1,4,3:1:0:0:
256,80,63799,1,0,0:0:0:0:
72,224,63965,6,0,B|116:212|116:212|156:224,1,88.000002685547,4|0,3:1|0:0,0:0:0:0:
300,148,64296,2,0,B|256:160|256:160|216:148,1,88.000002685547,8|0,3:2|0:0,0:0:0:0:
268,292,64628,2,0,B|326:319|393:290|416:233,1,176.000005371094,8|0,3:2|3:0,0:0:0:0:
492,64,65125,1,0,0:0:0:0:
440,132,65291,6,0,B|408:92|408:48|408:48|368:60|320:48,1,176.000005371094,8|0,3:2|3:0,0:0:0:0:
187,49,65788,2,0,B|144:60|104:48|104:48|104:92|72:132,1,176.000005371094,8|0,3:2|0:0,0:0:0:0:
32,276,66285,2,0,L|120:276,1,88.000002685547,8|0,3:2|0:0,0:0:0:0:
220,308,66617,6,0,B|248:325|282:323|308:308,1,88.000002685547,4|0,3:1|0:0,0:0:0:0:
196,180,66948,2,0,B|168:163|134:165|108:180,1,88.000002685547,8|0,3:2|0:0,0:0:0:0:
207,95,67280,2,0,B|256:102|290:144|290:195|265:230,1,176.000005371094,8|0,3:2|3:0,0:0:0:0:
196,320,67777,1,0,0:0:0:0:
416,296,67943,6,0,L|416:120,1,176.000005371094,8|0,3:2|3:0,0:0:0:0:
296,44,68440,1,8,3:2:0:0:
296,44,68523,1,0,0:0:0:0:
296,44,68606,2,0,L|256:124,1,88.000002685547,0|0,3:0|0:0,0:0:0:0:
144,144,68937,2,0,L|104:222,1,88.000002685547,8|0,3:2|0:0,0:0:0:0:
212,328,69269,6,0,B|239:343|270:343|296:332,1,88.000002685547,4|0,3:1|0:0,0:0:0:0:
380,256,69600,1,8,3:2:0:0:
472,172,69766,1,0,0:0:0:0:
348,140,69932,2,0,B|316:139|288:152|268:172,1,88.000002685547,8|0,3:2|0:0,0:0:0:0:
88,92,70263,2,0,L|176:92,1,88.000002685547,0|0,3:0|0:0,0:0:0:0:
348,140,70595,6,0,B|372:163|387:191|392:221,1,88.000002685547,8|0,3:2|0:0,0:0:0:0:
320,324,70926,2,0,B|296:301|281:273|276:243,1,88.000002685547,0|8,3:0|3:2,0:0:0:0:
92,200,71258,2,0,L|180:200,1,88.000002685547,0|0,3:0|0:0,0:0:0:0:
176,92,71589,2,0,L|88:92,1,88.000002685547,8|0,3:2|0:0,0:0:0:0:
336,100,71921,6,0,B|304:103|277:120|260:144,1,88.000002685547,4|0,3:1|0:0,0:0:0:0:
184,244,72252,1,8,3:2:0:0:
328,244,72418,1,0,0:0:0:0:
336,344,72584,2,0,B|385:341|425:305|437:258|424:217,1,176.000005371094,8|0,3:2|3:0,0:0:0:0:
256,192,73081,1,8,3:2:0:0:
87,218,73247,2,0,B|73:265|93:314|133:341|175:344,1,176.000005371094,0|8,3:0|3:2,0:0:0:0:
200,52,73910,2,0,B|234:51|264:69|280:96,1,88.000002685547,0|8,3:0|3:2,0:0:0:0:
360,232,74241,1,8,3:2:0:0:
404,68,74407,1,8,3:2:0:0:
476,216,74573,6,0,B|432:216|432:216|400:232|400:232|356:232,1,120,4|0,3:1|0:0,0:0:0:0:
348,268,74904,2,0,B|340:296|320:317|296:328,1,80,0|0,3:0|0:0,0:0:0:0:
164,320,75236,2,0,L|222:260,1,80,0|0,3:0|0:0,0:0:0:0:
312,132,75567,2,0,B|336:115|366:117|388:132,1,80,0|0,3:0|0:0,0:0:0:0:
272,60,75899,6,0,B|233:84|218:132|234:176|267:199,1,160,0|0,3:0|3:0,0:0:0:0:
348,268,76396,1,0,0:0:0:0:
170,288,76562,2,0,B|140:304|140:304|124:301|124:301|96:312,1,80,0|8,3:0|3:2,0:0:0:0:
53,203,76893,2,0,B|84:188|84:188|99:190|99:190|128:180,1,80,0|8,3:0|3:2,0:0:0:0:
108,76,77225,6,0,B|176:76|176:76|204:92|204:92|264:92,1,160,4|0,3:1|3:0,0:0:0:0:
352,92,77722,1,0,0:0:0:0:
348,304,77888,1,0,3:0:0:0:
444,172,78053,1,0,0:0:0:0:
308,196,78219,1,0,3:0:0:0:
468,280,78385,1,0,0:0:0:0:
308,196,78551,6,0,B|268:170|218:174|182:204|168:243,1,160,0|0,3:0|3:0,0:0:0:0:
104,320,79048,1,0,0:0:0:0:
256,352,79214,1,0,3:0:0:0:
408,320,79379,1,0,3:0:0:0:
256,272,79545,1,0,3:0:0:0:
324,152,79711,1,0,0:0:0:0:
400,204,79877,6,0,B|427:169|427:122|403:85|369:68,1,160,4|0,3:1|3:0,0:0:0:0:
144,67,80539,2,0,B|104:86|82:129|88:173|111:203,1,160,0|0,3:0|3:0,0:0:0:0:
256,332,81202,2,0,L|256:172,1,160,0|0,3:0|3:0,0:0:0:0:
132,240,81865,2,0,B|116:280|116:280|128:320,1,80,0|0,3:0|3:2,0:0:0:0:
385,315,82197,2,0,B|396:280|396:280|380:240,1,80,0|8,3:0|3:2,0:0:0:0:
188,132,82528,6,0,B|213:95|260:83|301:99|323:131,1,160,4|0,3:1|3:0,0:0:0:0:
256,332,83191,2,0,L|256:172,1,160,0|0,3:0|3:0,0:0:0:0:
91,128,83854,2,0,B|76:154|70:182|72:209,1,80,0|0,3:0|0:0,0:0:0:0:
184,100,84186,1,0,3:0:0:0:
184,100,84352,1,0,0:0:0:0:
226,336,84517,6,0,B|199:346|172:345|148:336,1,80,0|0,3:0|0:0,0:0:0:0:
304,272,84849,1,0,3:0:0:0:
304,272,85015,1,8,3:2:0:0:
184,260,85180,6,0,L|184:100,1,160,0|8,3:0|3:2,0:0:0:0:
280,84,85678,1,0,0:0:0:0:
280,84,85760,1,0,0:0:0:0:
280,84,85843,2,0,B|301:105|312:133|312:160,1,80,0|0,3:0|0:0,0:0:0:0:
444,184,86175,2,0,B|423:205|395:216|368:216,1,80,8|8,3:2|0:0,0:0:0:0:
176,236,86506,5,0,3:0:0:0:
76,316,86672,1,0,0:0:0:0:
220,344,86838,1,8,3:2:0:0:
80,180,87004,1,8,0:0:0:0:
80,180,87086,1,8,0:0:0:0:
80,180,87169,1,0,3:0:0:0:
200,100,87335,2,0,L|280:100,1,80,8|8,0:0|3:2,0:0:0:0:
408,200,87667,2,0,L|328:200,1,80,8|0,0:0|0:0,0:0:0:0:
